Split.Lip.2019.HDRip.AC3.X264.LLG

Size 1.1 GB   3 seeders     Added 5 days ago

Quote:   ******************************Thumbnail:**********************
 ******************************Screenshots:********************
Screenshot 1  Screenshot 2  Screenshot 3  Screenshot 4  Screenshot 5  Screenshot 6  Screenshot 7  Screenshot 8  Screenshot 9  Screenshot 0  ******************************************************
Split.Lip.2019.HDRip.AC3.X264.LLG.mp4
Format : MPEG-4
Format profile : Base Media
Codec ID : isom (isom/iso2/avc1/mp41)
File size : 1.09 GiB
Duration : 1 h 40 min
Overall bit rate mode : Variable
Overall bit rate : 1 549 kb/s
Video
ID : 1
Format : AVC
Format/Info : Advanced Video Codec
Format profile : [email protected] Format settings : CABAC / 1 Ref Frames
Format settings, CABAC : Yes
Format settings, RefFrames : 1 frame
Codec ID : avc1
Codec ID/Info : Advanced Video Coding
Duration : 1 h 40 min
Bit rate mode : Variable
Bit rate : 1 162 kb/s
Maximum bit rate : 3 600 kb/s
Width : 720 pixels
Height : 328 pixels
Display aspect ratio : 2.2:1
Frame rate mode : Constant
Frame rate : 23.976 (23976/1000) FPS
Color space : YUV
Chroma subsampling : 4:2:0
Bit depth : 8 bits
Scan type : Progressive
Bits/(Pixel*Frame) : 0.205
Stream size : 836 MiB (75%)
Audio
ID : 2
Format : AC-3
Format/Info : Audio Coding 3
Commercial name : Dolby Digital
Codec ID  : ac-3
Duration : 1 h 40 min
Bit rate mode : Constant
Bit rate : 384 kb/s
Channel(s) : 6 channels
Channel layout : L R C LFE Ls Rs
Sampling rate : 48.0 kHz
Frame rate : 31.250 FPS (1536 SPF)
Bit depth : 16 bits
Compression mode : Lossy
Stream size : 276 MiB (25%)
Language : English
Service kind : Complete Main
Default : Yes
Alternate group : 1
********************************************************    

udp://tracker.openbittorrent.com:80/announce
udp://tracker.opentrackr.org:1337/announce
UDP://TRACKER.LEECHERS-PARADISE.ORG:6969/ANNOUNCE
udp://tracker.zer0day.to:1337/announce
udp://tracker.leechers-paradise.org:6969/announce
udp://coppersurfer.tk:6969/announce

4000 symbols left
Hash f0f7906353ae246a7f31705afccc720385926554
CAM The Grinch | Watch Movie | Bob Morane