The Lego Movie 2 The Second Part 2019 Movies HD Cam x264 Clean Au...

Size 709.1 MB   50 seeders     Added 5 days ago

The Lego Movie 2 The Second Part 2019 Movies HD Cam x264 Clean Audio New Source with Sample ☻rDX☻
===============================================================================================
SCREEN SHOTS:   or
http://iphonehosting.eu/2018/12/advocate/1.html  File size : 702 MiB
Duration : 1 h 34 min
Overall bit rate : 1 039 kb/s
Movie name : The Lego Movie 2 The Second Part 2019 Movies HD Cam x264 Clean Audio New Source ☻rDX☻
Video
ID : 2
Format : AVC
Format/Info : Advanced Video Codec
Format profile : [email protected] Format settings, CABAC : Yes
Format settings, ReFrames : 2 frames
Codec ID : V_MPEG4/ISO/AVC
Duration : 1 h 34 min
Bit rate : 954 kb/s
Width : 700 pixels
Height : 294 pixels
Display aspect ratio : 2.40:1
Frame rate mode : Constant
Frame rate : 29.970 (30000/1001) FPS
Color space : YUV
Chroma subsampling : 4:2:0
Bit depth : 8 bits
Scan type : Progressive
Bits/(Pixel*Frame) : 0.155
Stream size : 645 MiB (92%)
Title : ☻rDX☻
Default : Yes
Forced : No
Audio
ID : 1
Format : AC-3
Format/Info : Audio Coding 3
Mode extension : CM (complete main)
Format settings, Endianness : Big
Codec ID : A_AC3
Duration : 1 h 34 min
Bit rate mode : Constant
Bit rate : 64.0 kb/s
Channel(s) : 2 channels
Channel positions : Front: L R
Sampling rate : 44.1 kHz
Frame rate : 28.711 FPS (1536 spf)
Bit depth : 16 bits
Compression mode : Lossy
Stream size : 43.3 MiB (6%)
Title : ☻rDX☻
Default : Yes
Forced : No
http://www.imdb.com/title/tt3513498

udp://tracker.coppersurfer.tk:6969/announce
udp://tracker.leechers-paradise.org:6969/announce
udp://tracker.pirateparty.gr:6969/announce
udp://eddie4.nl:6969/announce
udp://tracker.zer0day.to:1337/announce
udp://9.rarbg.me:2730/announce
udp://9.rarbg.to:2710/announce
udp://public.popcorn-tracker.org:6969/announce
udp://p4p.arenabg.ch:1337/announce
udp://tracker.vanitycore.co:6969/announce
udp://ipv4.tracker.harry.lu:80/announce
udp://tracker.opentrackr.org:1337/announce
udp://p4p.arenabg.com:1337/announce
udp://shadowshq.yi.org:6969/announce
udp://tracker.zer0day.to:1337/announce
udp://tracker.leechers-paradise.org:6969/announce
udp://coppersurfer.tk:6969/announce

4000 symbols left
Hash 0277fd3a38d718ffa6ac7beb40677f2e91ac81af
Avatar - Der Herr der Elemente (3) | Queen - 2018 - Bohemian Rhapsody (The Original Soundtrack) | grand corps malade 3ème temps